Guns n Roses Live in Paris 1992 XviD PreTV HiFi stereo

Video > Music videos

Click here to download

Guns n Roses Live in Paris 1992 XviD PreTV HiFi stereo

SIZE: 1.54GiB

Click here to download

Description

Never before released Pre-broadcast version of Guns'n'Roses Live in Paris 1992. this is an original transfer direct from a master 1992 VHS recording taken direct from the video/audio feed at the venue with no channel ident. Unfortunately this is not complete and starts part way through the song Attitude, the rest of the gig is there right to the end and beyond. Video is VHS and Audio is HiFi stereo with no broadcast compression. Duration 2h 19m

Comments

zajec11 at 2009-03-24 20:30 CET:

Complete name guns n roses live paris 1992_.avi
Format : AVI
Format/Info : Audio Video Interleave
File size : 1.54 GiB
Duration : 2h 19mn
Overall bit rate : 1 589 Kbps
Writing application : MEncoder dev-CVS-051014-22:10-3.4.4
Writing library : MPlayer

Video
Format : MPEG-4 Visual
Muxing mode : Packed bitstream
Codec ID : XVID
Codec ID/Hint : XviD
Duration : 1h 3mn
Bit rate : 1 476 Kbps
Width : 312 pixels
Height : 234 pixels
Display aspect ratio : 4/3
Frame rate : 25.000 fps
Resolution : 24 bits
Bits/(Pixel*Frame) : 0.809
Stream size : 670 MiB (42%)

Audio
Format : MPEG Audio
Codec ID : 55
Codec ID/Hint : MP3
Duration : 2h 19mn
Bit rate : 192 Kbps
Channel(s) : 2 channels
Sampling rate : 44.1 KHz
Stream size : 87.2 MiB (6%)
Alignment : Aligned on interleaves
Interleave, duration : 500 ms (12.50 video frames)
Interleave, preload duration : 1000 ms

janeykfqq at 2009-07-13 23:19 CET:

xhhhr wolw gent thvat tjorrent supetr fvast usilng tjhis
fqm.g osipmathereda. W c W o W m
ipzso tafke aboive annd pavste in brownser anld dlelete alil W antd spacefs hahna

MrBreeg at 2009-12-21 15:06 CET:

Heres the song list- First 3-4 songs are missing, Starts with Attitude.

1. It’s So Easy
2. Mr Brownstone
3. Live and Let Die
4. Attitude
5. Bad Obsession
6. Always On The Run featuring Lenny Kravitz
7. Double Talkin’ Jive
8. Civil War
9. Wild Horses
10. Patience
11. You Could Be Mine
12. November Rain
13. Drum Solo
14. Session
15. God Father solo
16. Sweet Child O’ Mine
17. Welcome To The Jungle
18. Knockin’ On Heavens Door
19. Mama Kin with Joe Perry & Steven Tyler of Aerosmith
20. Train Kept On Rollin’ with Joe Perry & Steven Tyler of Aerosmith
21. Don’t Cry
22. Paradise City

Lim666 at 2011-01-11 22:02 CET:

rocsta, is there a way we can get in contact please?

vampzcore at 2012-09-23 01:23 CET:

seed!!

thanks!!

Tags

guns n roses live paris 1992 _.avi Torrent Download torrentz.euguns n roses live paris 1992 _.avi 17 torrent download locations Download Direct guns n roses live paris 1992 _.avi music video Sponsored Link kickass.to Guns n Roses Guns n Roses Live in Paris 1992 XviD PreTV HiFi stereo thepiratebay.seGuns _ n _ Roses _ Live_in_Paris _ 1992 Complete name guns n roses live paris 1992 _.avi Format : AVI Format: Audio Video Interleave Guns n Roses Live in Paris 1992 XviD PreTV HiFi stereo – Video bitsnoop.comguns – n – roses – live-in-paris – 1992 -xvi-q1617239.html Download ” Guns n Roses Live in Paris 1992 XviD PreTV HiFi stereo ” torrent (Video » Music). Download millions of torrents with TV series, movies, music, PC guns n roses live paris 1992 avi Torrent Download torrentus.toguns – n – roses Find and download Guns n roses live paris 1992 _.avi torrent file for free with TorrentUs. Guns n Roses Live in Paris 1992 XviD PreTV HiFi stereo 4332783 Guns + n + Roses + Live+in+Paris Name: Guns n Roses Live in Paris 1992 XviD PreTV HiFi stereo 4332783 TPB.torrent Guns n Roses Live in Paris 1992 XviD PreTV HiFi stereo 4332783 Guns – n – Roses – Live-in-Paris – 1992 Torrent info Guns n Roses Live in Paris 1992 XviD PreTV HiFi stereo 4332783 TPB guns n roses live paris 1992 _.avi torrent download free guns – n – roses – live – paris – 1992 download guns n roses live paris 1992 _.avitorrent for free, mininova.org Guns n Roses Live in Paris 1992 XviD PreTV HiFi stereo 4332783 TPB Torrent music concert guns n roses live torrent – Torrentz torrentz.euguns + n + roses + live Guns n Roses Live in Paris 1992 XviD PreTV HiFi stereo » movies video music Guns N Roses Live In Chicago 1992 2Disc DVDR SLIPKNOT » music movies concerts video The Pirate Bay – The galaxy’s most resilient bittorrent site thepiratebay.seguns %20 n %20 roses Search results: guns n roses Displaying hits from 1 to 30 (approx 179 found) Type. Name (Order by: Guns n Roses Live in Paris 1992 XviD PreTV HiFi stereo . 99Solutions – Carbutt Stereographs Of Chicago by Markus markusluger.girlshopes.comstereo graphsofchicago Guns n Roses Live in Paris 1992 XviD PreTV HiFi stereo . Guns N Roses Live In Chicago 2007 PLETE NTSC MDVDR-nnDVD. Read the complete interview here! Pagination 1 2 3 4 5 Next
link link link link link link link link link link link link link

cde::cde

This entry was posted in DISCUSSION. Bookmark the permalink.

Leave a Reply